Gumnaami (2019) 720p Web Rip Dual Audios [ Hin, Ben ]

Size 1.0 GB   14 seeders     Added 4 weeks ago

 Gumnaami (2019):
 2h 19min | Action | 2 October 2019 (India)
Gumnaami is a film based on the Mukherjee Commission Hearings which happened from 1999 to 2005 where the three theories about Netaji Subhas Chandra Bose's death were discussed and debated.
Director: Srijit Mukherji
Writer: Srijit Mukherji (story and screenplay)
Stars: Jitendra Agarwal, Aman, Archana.
Format : Matroska
Format version : Version 4
File size : 1.03 GiB
Duration : 2 h 18 min
Overall bit rate : 1 061 kb/s
Video
ID : 1
Format : AVC
Format/Info : Advanced Video Codec
Format profile : [email protected] Format settings : CABAC / 4 Ref Frames
Format settings, CABAC : Yes
Format settings, Reference : 4 frames
Codec ID : V_MPEG4/ISO/AVC
Duration : 2 h 18 min
Bit rate : 880 kb/s
Width : 1 280 pixels
Height : 536 pixels
Display aspect ratio : 2.40:1
Frame rate mode : Constant
Frame rate : 24.000 FPS
Color space : YUV
Chroma subsampling : 4:2:0
Bit depth : 8 bits
Scan type : Progressive
Bits/(Pixel*Frame) : 0.053
Stream size : 866 MiB (82%)
Writing library : x264 core Audio #1
ID : 2
Format : AAC LC
Format/Info : Advanced Audio Codec Low Complexity
Codec ID : A_AAC-2
Duration : 2 h 18 min
Bit rate : 93.2 kb/s
Channel(s) : 2 channels
Channel layout : L R
Sampling rate : 44.1 kHz
Frame rate : 43.066 FPS (1024 SPF)
Compression mode : Lossy
Stream size : 92.5 MiB (9%)
Language : Hindi
Default : Yes
Forced : Yes
Audio #2
ID : 3
Format : AAC LC
Format/Info : Advanced Audio Codec Low Complexity
Codec ID : A_AAC-2
Duration : 2 h 18 min
Bit rate : 93.2 kb/s
Channel(s) : 2 channels
Channel layout : L R
Sampling rate : 44.1 kHz
Frame rate : 43.066 FPS (1024 SPF)
Compression mode : Lossy
Stream size : 92.5 MiB (9%)
Language : English + Bengali Mixed
Default : No
Forced : No

udp://tracker.coppersurfer.tk:6969/announce
udp://tracker.pirateparty.gr:6969/announce
udp://tracker.tiny-vps.com:6969/announce
udp://open.demonii.si:1337/announce
udp://ipv4.tracker.harry.lu:80/announce
udp://denis.stalker.upeer.me:6969/announce
http://t.nyaatracker.com:80/announce
udp://tracker.opentrackr.org:1337/announce
udp://open.stealth.si:80/announce
udp://tracker.internetwarriors.net:1337/announce
udp://tracker.leechers-paradise.org:6969/announce
udp://9.rarbg.to:2800/announce
http://tracker3.itzmx.com:6961/announce
http://tracker1.itzmx.com:8080/announce
udp://tracker.zer0day.to:1337/announce
udp://tracker.leechers-paradise.org:6969/announce
udp://coppersurfer.tk:6969/announce

4000 symbols left
Hash 537ac94117484e0ca9d7798bf0c34e1cced59879