Operation Red Sea 2018 BluRay 1080p Dual Audio Hindi Chinese DD 5...

Size 4.4 GB   6 seeders     Added 4 weeks ago

   ********************************
 Operation Red Sea 2018 BluRay 1080p Dual Audio Hindi Chinese DD 5.1 x264 ESub - mkvCinemas [Telly]  ********************************
Mediainfo:-
Format : Matroska
Format version : Version 2
File size : 4.39 GiB
Duration : 2h 18mn
Overall bit rate mode : Variable
Overall bit rate : 4 531 Kbps
Video
ID : 1
Format : AVC
Format/Info : Advanced Video Codec
Format profile : [email protected] Format settings, CABAC : Yes
Format settings, ReFrames : 4 frames
Muxing mode : Header stripping
Codec ID : V_MPEG4/ISO/AVC
Duration : 2h 18mn
Bit rate mode : Variable
Bit rate : 3 500 Kbps
Maximum bit rate : 62.5 Mbps
Width : 1 920 pixels
Height : 800 pixels
Display aspect ratio : 2.40:1
Frame rate mode : Constant
Frame rate : 24.000 fps
Color space : YUV
Audio #1
ID : 2
Format : AC-3
Format/Info : Audio Coding 3
Mode extension : CM (complete main)
Format settings, Endianness : Big
Muxing mode : Header stripping
Codec ID : A_AC3
Duration : 2h 18mn
Bit rate mode : Constant
Bit rate : 640 Kbps
Channel(s) : 6 channels
Channel positions : Front: L C R, Side: L R, LFE
Sampling rate : 48.0 KHz
Bit depth : 16 bits
Compression mode : Lossy
Stream size : 635 MiB (14%)
Title : mkvCinemas
Language : Hindi
Default : Yes
Forced : No
Audio #2
ID : 3
Format : AC-3
Format/Info : Audio Coding 3
Mode extension : CM (complete main)
Format settings, Endianness : Big
Muxing mode : Header stripping
Codec ID  : A_AC3
Duration : 2h 18mn
Bit rate mode : Constant
Bit rate : 384 Kbps
Channel(s) : 6 channels
Channel positions : Front: L C R, Side: L R, LFE
Sampling rate : 48.0 KHz
Bit depth : 16 bits
Compression mode : Lossy
Stream size : 381 MiB (8%)
Title : mkvCinemas
Language : English
Default : No
Forced : No
Text #1
ID : 4
Format : VobSub
Muxing mode : zlib
Codec ID : S_VOBSUB
Codec ID/Info : The same subtitle format used on DVDs
Title : mkvCinemas
Language : English
Default : Yes
Forced : No
Text #2
ID : 5
Format : VobSub
Muxing mode : zlib
Codec ID : S_VOBSUB
Codec ID/Info : The same subtitle format used on DVDs
Title : mkvCinemas
Language : Chinese
Default : No
Forced : No
Menu
00:00:00.000 : en:00:00:00.000
00:13:45.250 : en:00:13:45.250
00:21:00.125 : en:00:21:00.125
00:30:05.000 : en:00:30:05.000
00:43:07.000 : en:00:43:07.000
00:50:28.333 : en:00:50:28.333
01:01:29.708 : en:01:01:29.708
01:14:04.625 : en:01:14:04.625
01:21:09.083 : en:01:21:09.083
01:33:48.833 : en:01:33:48.833
01:42:31.458 : en:01:42:31.458
01:52:23.667 : en:01:52:23.667
02:01:09.083 : en:02:01:09.083
02:16:05.500 : en:02:16:05.500
  ********************************
We don't add Watermark or Audio Tags.
Wherever you Share our Stuffs, Give Proper Credit to "mkvCinemas @Team Telly"
We Keep All Torrents. In case of re-seed, please pm.  ********************************
     ********************************
 ********************************

udp://tracker.coppersurfer.tk:6969/announce
udp://tracker.opentrackr.org:1337/announce
http://tracker3.itzmx.com:6961/announce
http://tracker1.itzmx.com:8080/announce
udp://p4p.arenabg.com:1337
udp://bt.firebit.co.uk:6969/announce
udp://tracker.leechers-paradise.org:6969/announce
udp://open.demonii.si:1337/announce
udp://tracker.tiny-vps.com:6969/announce
udp://thetracker.org:80/announce
udp://open.stealth.si:80/announce
udp://9.rarbg.com:2710/announce
udp://9.rarbg.me:2730/announce
udp://tracker.internetwarriors.net:1337/announce
udp://tracker.zer0day.to:1337/announce
udp://tracker.leechers-paradise.org:6969/announce
udp://coppersurfer.tk:6969/announce

4000 symbols left
Hash 1cc58b61bfa1f8442385b4735f8c135292bf9567