Operation Red Sea (2018) 1080p BluRay x264 Dual Audio [Hindi DD5....

Size 4.9 GB   14 seeders     Added 4 weeks ago

 Operation Red Sea (2018) 1080p BluRay x264 Dual Audio [Hindi DD5.1 - Chinese DD5.1] - ESUBS ~ Ranvijay - DusIcTv  Thanks To Hammer For Hindi Audio & Deepak Bhirman For Sync  General
Format                                   : Matroska
Format version                           : Version 4 / Version 2
File size                                : 4.88 GiB
Duration                                 : 2 h 18 min
Overall bit rate                         : 5 033 kb/s
Movie name                               : Operation Red Sea (2018) 1080p BluRay x264 Dual Audio [Hindi DD5.1 -Chinese DD5.1] - ESUBS ~ Ranvijay
Video
ID                                       : 1
Format                                   : AVC
Format/Info                              : Advanced Video Codec
Format profile                           : [email protected] Format settings                          : CABAC / 5 Ref Frames
Format settings, CABAC                   : Yes
Format settings, RefFrames               : 5 frames
Codec ID                                 : V_MPEG4/ISO/AVC
Duration                                 : 2 h 18 min
Bit rate                                 : 4 000 kb/s
Width                                    : 1 920 pixels
Height                                   : 800 pixels
Display aspect ratio                     : 2.40:1
Frame rate mode                          : Constant
Frame rate                               : 24.000 FPS
Color space                              : YUV
Chroma subsampling                       : 4:2:0
Bit depth                                : 8 bits
Scan type                                : Progressive
Bits/(Pixel*Frame)                       : 0.109
Stream size                              : 3.88 GiB (79%)
Title                                    : ~Ranvijay~
Default                                  : Yes
Forced                                   : No
Color range                              : Limited
Color primaries                          : Generic film
Transfer characteristics                 : BT.709
Matrix coefficients                      : BT.709
Audio #1
ID                                       : 2
Format                                   : AC-3
Format/Info                              : Audio Coding 3
Codec ID                                 : A_AC3
Duration                                 : 2 h 18 min
Bit rate mode                            : Constant
Bit rate                                 : 640 kb/s
Channel(s)                               : 6 channels
Channel positions                        : Front: L C R, Side: L R, LFE
Sampling rate                            : 48.0 kHz
Frame rate                               : 31.250 FPS (1536 SPF)
Bit depth                                : 16 bits
Compression mode                         : Lossy
Stream size                              : 635 MiB (13%)
Title                                    : ~Ranvijay~
Language                                 : Hindi
Service kind                             : Complete Main
Default                                  : Yes
Forced                                   : Yes
Audio #2
ID                                       : 3
Format                                   : AC-3
Format/Info                              : Audio Coding 3
Codec ID                                 : A_AC3
Duration                                 : 2 h 18 min
Bit rate mode                            : Constant
Bit rate                                 : 384 kb/s
Channel(s)                               : 6 channels
Channel positions                        : Front: L C R, Side: L R, LFE
Sampling rate                            : 48.0 kHz
Frame rate                               : 31.250 FPS (1536 SPF)
Bit depth                                : 16 bits
Compression mode                         : Lossy
Stream size                              : 381 MiB (8%)
Title                                    : ~Ranvijay~
Language                                 : Chinese
Service kind                             : Complete Main
Default                                  : No
Forced                                   : No
Text
ID                                       : 4
Format                                   : PGS
Muxing mode                              : zlib
Codec ID                                 : S_HDMV/PGS
Codec ID/Info                            : Picture based subtitle format used on BDs/HD-DVDs
Duration                                 : 2 h 13 min
Bit rate                                 : 21.9 kb/s
Count of elements                        : 2733
Stream size                              : 21.0 MiB (0%)
Title                                    : ~Ranvijay~
Language                                 : English
Default                                  : Yes
Forced                                   : Yes
Menu
00:00:00.000                             : en:00:00:00.000
00:13:45.250                             : en:00:13:45.250
00:21:00.125                             : en:00:21:00.125
00:30:05.000                             : en:00:30:05.000
00:43:07.000                             : en:00:43:07.000
00:50:28.333                             : en:00:50:28.333
01:01:29.708                             : en:01:01:29.708
01:14:04.625                             : en:01:14:04.625
01:21:09.083                             : en:01:21:09.083
01:33:48.833                             : en:01:33:48.833
01:42:31.458                             : en:01:42:31.458
01:52:23.667                             : en:01:52:23.667
02:01:09.083                             : en:02:01:09.083
02:16:05.500                             : en:02:16:05.500           

udp://tracker.pirateparty.gr:6969/announce
udp://tracker.tiny-vps.com:6969/announce
udp://open.stealth.si:80/announce
udp://tracker.opentrackr.org:1337/announce
udp://tracker.internetwarriors.net:1337/announce
udp://9.rarbg.to:2740/announce
udp://tracker1.itzmx.com:8080/announce
udp://9.rarbg.me:2710/announce
udp://thetracker.org:80/announce
udp://tracker.coppersurfer.tk:6969/announce
https://tracker.fastdownload.xyz:443/announce
udp://torrentclub.tech:6969/announce
udp://open.demonii.si:1337/announce
http://seeders-paradise.org:80/announce
udp://tracker.zer0day.to:1337/announce
udp://tracker.leechers-paradise.org:6969/announce
udp://coppersurfer.tk:6969/announce

4000 symbols left
Hash 72348f149314c413d221273432b1b40dc56a1f17