Melting Cheese (2019) ULLU 720p HDRip Dual Audios [ HIN, BEN ] x2...

Size 440.3 MB   55 seeders     Added 3 days ago

  Melting Cheese (2019) :
In every Six month, Aanand, The womaniser fires his secretaries. His wife knows it but she has become dull in her life. But one secretary befriends with his wife.
 As we all know extra sweetness harms you the big. Say Cheese and Watch the breath-holding suspense in the MELTING CHEESE.
Director: Deepak Pandey
Actors: Naina Mukhi, Sachin Verma, Shikha chabra
Release: 2019
Country: India
Format : Matroska
Format version : Version 4
File size : 440 MiB
Duration : 30 min 14 s
Overall bit rate : 2 036 kb/s
Video
ID : 1
Format  : AVC
Format/Info : Advanced Video Codec
Format profile : [email protected] Format settings : 3 Ref Frames
Format settings, CABAC : No
Format settings, Reference : 3 frames
Codec ID : V_MPEG4/ISO/AVC
Duration : 30 min 14 s
Bit rate : 1 800 kb/s
Width : 1 280 pixels
Height : 720 pixels
Display aspect ratio : 16:9
Frame rate mode : Constant
Frame rate : 25.000 FPS
Color space : YUV
Chroma subsampling : 4:2:0
Bit depth : 8 bits
Scan type : Progressive
Bits/(Pixel*Frame) : 0.078
Stream size : 385 MiB (88%)
Writing library : x264 core Audio #1
ID : 2
Format : AAC LC
Format/Info : Advanced Audio Codec Low Complexity
Codec ID : A_AAC-2
Duration : 30 min 14 s
Bit rate : 126 kb/s
Channel(s) : 2 channels
Channel layout : L R
Sampling rate : 44.1 kHz
Frame rate : 43.066 FPS (1024 SPF)
Compression mode : Lossy
Stream size : 27.2 MiB (6%)
Language : Hindi
Default : Yes
Forced : Yes
Audio #2
ID : 3
Format : AAC LC
Format/Info : Advanced Audio Codec Low Complexity
Codec ID : A_AAC-2
Duration : 30 min 14 s
Bit rate : 126 kb/s
Channel(s) : 2 channels
Channel layout : L R
Sampling rate : 44.1 kHz
Frame rate : 43.066 FPS (1024 SPF)
Compression mode : Lossy
Stream size : 27.2 MiB (6%)
Language : Bengali
Default : No
Forced : No

udp://tracker.coppersurfer.tk:6969/announce
udp://tracker.pirateparty.gr:6969/announce
udp://tracker.tiny-vps.com:6969/announce
udp://open.demonii.si:1337/announce
udp://ipv4.tracker.harry.lu:80/announce
udp://denis.stalker.upeer.me:6969/announce
http://t.nyaatracker.com:80/announce
udp://tracker.opentrackr.org:1337/announce
udp://open.stealth.si:80/announce
udp://tracker.internetwarriors.net:1337/announce
udp://tracker.leechers-paradise.org:6969/announce
udp://9.rarbg.to:2800/announce
http://tracker3.itzmx.com:6961/announce
http://tracker1.itzmx.com:8080/announce
udp://tracker.zer0day.to:1337/announce
udp://tracker.leechers-paradise.org:6969/announce
udp://coppersurfer.tk:6969/announce

4000 symbols left
Hash 2a180df7c75cf0ab13eba13e20270f6ed7513e2a